[888真人备用网址]Annapolis 2006 Bluray 720p AC3 X264[中英字幕/2.6G],bt下载,高清下载,迅雷下载,电影下载,720P BD-MKV高清电影BT转贴区


◎国文 名 888真人备用网址
安纳波利斯复制品名
◎年  代 2006
◎国  家 美国
类别景象
◎语  言 英语/导演评论音轨
◎字  幕 国文
IMDB评分 (2,276 开票)
◎复制品下载      IMDB网站  
动作迟缓大小104 Min
林一彬人名地址录 Justin Lin
◎主  演 唐尼·瓦尔贝格 Donnie Wahlberg
一天的旅程·酿造者 Jordana Brewster
詹姆士·弗兰克 James Franco
Zachery Ty Bryan
Wilmer Calderon
Lauro Chartrand
Tony Devon
Roger Fan
弥迦书 Foley

建杰

剧情简介:叮当男性化的特点

马里兰州安纳波利斯,厚重庄严的美国海军中学是恒河沙数的庇护所。,像花旗在风中楼梯的一段,永恒在心脏使作潺潺声……中学以枯燥的的校规和枯燥的的锻炼一道菜而有名。,美国10所最纠葛的学院批准。,唯自制力、气质、体质、独身有极其知和生产能力的先生将从t通行卒业。。Jack James,是人蓝领家属的慢车较年幼的? 不舒服答应双亲的普通事业,盼望发生祖国的无聊队员。。

批准坚苦的派遣,杰克末后踏上了海军中学的大门。,早已发生多数被确认的多数人批准。。又,学院再生杰克很快就识透,左右梦境大厅决不是的同的设想中那么骄慢和舒服。,他正厌烦学问和自然的的艰苦和应战。,频繁的红灯课将近使他距了。。以激起潜在的战斗的智慧,杰克确定报名关注著名的军务盒锦标赛。。斑斓有能力的的女学究Ali(一天的旅程·酿造者) 开头,杰克因关注竞赛而受到嗤笑。,她置信杰克的验前条款,劝慰冠军几乎是笨蛋。,但杰克用本人坚决的确实移动了骄慢的Ali。,她朝外地教Rijk的盒技术。。因爸爸激烈的的祝愿。,也要回到英语男子名的同学科尔(阳台吉普森) 饰)的从中作梗,藐视地看着老年人,杰克果断踏上了军务盒场。,独身近似被耗费。、发生一名优良的专业性的。,到这地步征服剧烈的的震怒之海。。

背地里传说:梦打中三齿鱼叉

成立于1845年的美国海军中学从事自豪的历史与规矩,它是培育军务和政治事务官员的摇篮。,吉米·卡特总统是卒业生批准。,中学的主题句是:知大成三齿鱼叉。:希腊神话中,三齿鱼叉是海神波塞冬的兵器。。为了梦想打中三齿鱼叉,每年约有5万名较年幼的用功退学。,但期末考试,单独的1200个侥幸的男孩有资历退学。,根据大概合格卒业、发生一流指挥官。,对每个先生,四年的求先生活是眼疾手快和体质的期末考试试验。,每个先生城市在在这里通用实现预期的结果或舍弃神人的梦想。。

回到1865,盒已发生高等院校必修课程批准。;1942年,要素届军务盒锦标赛针对培育和恢宏,非常球面的著名宇航员、总的甚至元帅都经验过这次事变的公共浴室。。《888真人备用网址》的创作要紧来自2001年《体育画报》上一篇“军旅盒锦标赛”的相互关系文字;军务教导和两种男性化的激素的无机使化合。,为零实现预期的结果大梦想的花励志习俗套路装备了更为宽广的表示片刻。

生产起次要作用:冠军是这样的文雅。

兼具忧郁偶像气质另加好像演技功力的詹姆士?弗兰克在接下了担纲主演的派遣后,很快进入了创意连箱的。,更读懂落落大方军务回忆录以图,弗兰克做落落大方的体育朋友是头号次要争论点。,轻蔑的拒绝或不承认他经验过在GR中爬山和骨碌的经验。、在审判斯坦和ED中,他勉强锻炼了参加使惊奇与迷惑的击剑。,但他的肌肉界线和范围依然与明亮的有必然间隔。,归根结蒂,当你去戒指的时分,你必要暴露你的胸部。,不得掺假。。在资深的盒火车的控制下,弗兰克从粉底开端。,仰卧起坐、俯卧撑、超速沙袋、跳等。,均契合专业盒锻炼规范。,每天早期4点,你会钞票弗兰克在体育场里担心。,终极,他可以同时遵守300次俯卧撑。,勤勉的智慧使火车敬佩。,嗤笑一半的的盒手和弗兰克锻炼相似的难。,他玫瑰色被选入出类拔萃的人物。。

剧组请来海军中学1991届卒业生——服役的海军上尉亮度单位?卡森作为复制品的军务征求意见者,职掌所某个假冒者。、体育、射击2周的军训。;铁拳接近末期的的人。,著名朋友导演Nick Powell再次设计了精彩的B,谁距了Russell James和弗兰克?。

复查:下独身李安?

就事实就,这部复制品决不是的新奇的。,官绅兼并后很有档次。,同独身嗨!在使冰冷打中神人受到火车的英语男子名锻炼。、一种盛行的方法重行开端。,军务安插朴素地修饰的烘衬。,盒是激起性欲的次要道路。。不要找借口。,登你的抱负。,这是军官和绅士的神人旅行日程。,这部复制品的引导,同一致力于。。与传说自行比拟,华裔美国导演林一彬如同更值当注重。,1973年台湾嗨!的他九岁就外姓到了美国,卒业后,美国加州学院卖得了第独身面貌FI,这部使用着的ABC青年文明的传说在2002在圣得西复制品节上是白色的。,过后它被美国MTV频道买下了。,发生要素部在圣得西复制品节上被片商交易的华裔导演全套物品。在13个美国剧院。,这部不到50百万的小本钱孤独生产竟然创下了至上的单周近40百万的成果,真是太神奇了。,重物复制品挑剔的人Roger Albert称他为明日之星。,每日多样被评为10大最有指望的导演。,林一彬如同是下独身李安。。2006是林一彬集打中岁。,《888真人备用网址》拍竣后,他越来越受到生产人的冲击力。,超速与热衷的事物3:北越竹闲逛的》、热门题目,如美国版的老男孩早已发生了我的东西。。下一站,李安林毅斌必要更多的时机来证实本人。。
E:\yuye\最后结果仓库栈\888真人备用网址 Annapolis 2006 Bluray 720p AC3 X264-CnSCG.mkv
General
Unique ID : 178064025512884493013827628543285676079 (0x85F5E245A77DBE29B8BBF6D3DEB8482F)
Complete name : E:\yuye\最后结果仓库栈\888真人备用网址 Annapolis 2006 Bluray 720p AC3 X264-CnSCG.mkv
Format : Matroska
File size : 2.63 GiB
Duration : 1h 43mn
Overall bit rate : 3 641 Kbps
Encoded date : UTC 2011-08-19 11:59:09
Writing application : mkvmerge v4.0.0 (的) Stars were 我的) 编制在 6月6日 2010 16:18:42
Writing library : libebml v1.0.0 + libmatroska v1.0.0
Video #1
ID : 1
Format : AVC
Format/Info : Advanced Video Codec
Format profile : High@L4.1
Format settings, CABAC : Yes
Format settings, ReFrames : 3 frames
Format settings, GOP : M=4, N=29
Codec ID : V_MPEG4/ISO/AVC
Duration : 1h 43mn
Bit rate mode : Variable
Bit rate : 2 999 Kbps
Maximum bit rate : 14.0 Mbps
Width : 1 280 pixels
Height : 720 pixels
Display aspect ratio : 16:9
Frame rate : 23.976 fps
Color space : YUV
Chroma subsampling : 4:2:0
Bit depth : 8 bits
Scan type : Progressive
Bits/(Pixel*Frame) : 0.136
Stream size : 2.12 GiB (80%)
Writing library : x264 core 115 r1995 c1e60b9
Encoding settings : cabac=1 / ref=4 / deblock=1:-3:-3 / analyse=0x3:0x133 / me=umh / subme=9 / psy=1 / psy_rd=1.00:0.00 / mixed_ref=1 / me_range=32 / chroma_me=1 / trellis=2 / 8x8dct=1 / cqm=0 / deadzone=21,11 / fast_pskip=0 / chroma_qp_offset=-2 / threads=6 / sliced_threads=0 / slices=4 / nr=0 / decimate=1 / interlaced=0 / bluray_compat=1 / constrained_intra=0 / bframes=3 / b_pyramid=1 / b_adapt=1 / b_bias=0 / direct=1 / weightb=1 / open_gop=1 / weightp=0 / keyint=24 / keyint_min=2 / scenecut=40 / intra_refresh=0 / rc_lookahead=24 / rc=2pass / mbtree=1 / bitrate=2999 / ratetol=1.0 / qcomp=0.60 / qpmin=10 / qpmax=51 / qpstep=4 / cplxblur=20.0 / qblur=0.5 / vbv_maxrate=14000 / vbv_bufsize=14500 / nal_hrd=vbr / ip_ratio=1.40 / aq=1:2.00
Language : English
Audio #2
ID : 2
Format : AC-3
Format/Info : Audio Coding 3
Mode extension : CM (完整) 次要)
Codec ID : A_AC3
Duration : 1h 43mn
Bit rate mode : Constant
Bit rate : 640 Kbps
传球(S) : 6 channels
Channel positions : Front: L C R, Side: L R, LFE
Sampling rate : 48.0 KHz
Bit depth : 16 bits
Compression mode : Lossy
Stream size : 474 MiB (18%)
Text #3
ID : 3
Format : SSA
Codec ID : S_TEXT/SSA
Codec ID/Info : Sub Station Alpha
Compression mode : Lossless
Title : 中左右英国
Text #4
ID : 4
Format : SSA
Codec ID : S_TEXT/SSA
Codec ID/Info : Sub Station Alpha
Compression mode : Lossless
Title : 英国中下游
Text #5
ID : 5annapolis 2006 bluray 720p ac3 x264
Format : SSA
Codec ID : S_TEXT/SSA
Codec ID/Info : Sub Station Alpha
Compression mode : Lossless
Title : 国文
Text #6
ID : 6
Format : SSA
Codec ID : S_TEXT/SSA
Codec ID/Info : Sub Station Alpha
Compression mode : Lossless
Title : eng

888真人备用网址 Annapolis 2006 Bluray 720p AC3 X264.torrent(0 Bytes, 下载次数: 712)

发表评论

电子邮件地址不会被公开。 必填项已用*标注